<?xml version="1.0" standalone="no"?>
<!DOCTYPE svg PUBLIC "-//W3C//DTD SVG 1.1//EN" "http://www.w3.org/Graphics/SVG/1.1/DTD/svg11.dtd" >
<svg xmlns="http://www.w3.org/2000/svg">
<metadata>Generated by IcoMoon</metadata>
<defs>
<font id="shirtinator-icons" horiz-adv-x="1024">
<font-face units-per-em="1024" ascent="960" descent="-64" />
<missing-glyph horiz-adv-x="1024" />
<glyph unicode="&#x20;" horiz-adv-x="512" d="" />
<glyph unicode="&#xe900;" glyph-name="arrow-down-icon" d="M910.222 726.756c5.689 5.689 11.378 5.689 17.067 5.689 8.533 0 14.222-2.844 17.067-5.689l71.111-65.422c5.689-5.689 5.689-11.378 5.689-17.067 0-8.533-2.844-14.222-5.689-17.067l-486.4-452.267c-2.844-2.844-5.689-2.844-8.533-5.689-2.844 0-5.689-2.844-8.533-2.844s-8.533 0-11.378 2.844c-2.844 0-5.689 2.844-8.533 5.689l-486.4 452.267c-5.689 5.689-5.689 11.378-5.689 17.067 0 8.533 2.844 14.222 5.689 17.067l71.111 65.422c5.689 5.689 11.378 5.689 17.067 5.689 8.533 0 14.222-2.844 17.067-5.689l398.222-369.778 401.067 369.778z" />
<glyph unicode="&#xe901;" glyph-name="arrow-left-icon" d="M790.756 49.778c5.689-5.689 5.689-11.378 5.689-17.067 0-8.533-2.844-14.222-5.689-17.067l-65.422-71.111c-5.689-5.689-11.378-5.689-17.067-5.689s-14.222 2.844-17.067 5.689l-452.267 486.4c-2.844 2.844-2.844 5.689-5.689 8.533 0 2.844-2.844 5.689-2.844 8.533s0 8.533 2.844 11.378c0 2.844 2.844 5.689 5.689 8.533l452.267 486.4c5.689 5.689 11.378 5.689 17.067 5.689 8.533 0 14.222-2.844 17.067-5.689l65.422-71.111c5.689-5.689 5.689-11.378 5.689-17.067 0-8.533-2.844-14.222-5.689-17.067l-369.778-398.222 369.778-401.067z" />
<glyph unicode="&#xe902;" glyph-name="arrow-right-icon" d="M605.354 448l-371.117 397.759c-4.436 4.563-6.682 10.59-6.682 18.251 0 7.605 2.246 13.689 6.682 18.252l66.654 70.865c4.436 4.619 10.406 6.872 17.8 6.872s13.309-2.253 17.745-6.872l453.38-486.876c2.191-2.253 3.834-4.957 4.984-7.943 1.095-3.042 1.643-6.534 1.643-10.309 0-3.042-0.548-6.253-1.643-9.745-1.15-3.38-2.793-6.253-4.984-8.506l-453.38-486.876c-4.436-4.563-10.351-6.872-17.745-6.872s-13.364 2.31-17.8 6.872l-66.654 70.865c-4.436 4.563-6.682 10.59-6.682 18.252 0 7.605 2.246 13.689 6.682 18.251l371.117 397.759z" />
<glyph unicode="&#xe903;" glyph-name="arrow-up-icon" d="M512 541.867l-398.222-369.778c-5.689-5.689-11.378-5.689-17.067-5.689-8.533 0-14.222 2.844-17.067 5.689l-71.111 65.422c-5.689 5.689-5.689 11.378-5.689 17.067 0 8.533 2.844 14.222 5.689 17.067l486.4 452.267c2.844 2.844 5.689 2.844 8.533 5.689 2.844 0 5.689 2.844 11.378 2.844 2.844 0 5.689 0 8.533-2.844 2.844 0 5.689-2.844 8.533-5.689l486.4-452.267c5.689-5.689 5.689-11.378 5.689-17.067 0-8.533-2.844-14.222-5.689-17.067l-71.111-65.422c-5.689-5.689-11.378-5.689-17.067-5.689-8.533 0-14.222 2.844-17.067 5.689l-401.067 369.778z" />
<glyph unicode="&#xe904;" glyph-name="search-icon" d="M417.903 232.13c-171.589 0-312.735 138.378-312.735 312.735 0 171.589 141.146 312.735 312.735 312.735s312.735-141.146 312.735-312.735c0-174.357-141.146-312.735-312.735-312.735zM1018.465 16.259l-271.222 268.454c55.351 71.957 88.562 160.519 88.562 257.384 0 229.708-188.195 417.903-417.903 417.903s-417.903-185.427-417.903-417.903c0-229.708 188.195-417.903 417.903-417.903 96.865 0 182.659 33.211 254.616 85.795l271.222-271.222c2.768-2.768 11.070-5.535 16.605-5.535s11.070 2.768 16.605 5.535l44.281 44.281c5.535 11.070 5.535 24.908-2.768 33.211z" />
<glyph unicode="&#xe905;" glyph-name="account-icon" horiz-adv-x="939" d="M930.909-7.907c0 270.691-200.086 474.871-465.426 474.871-265.396 0-465.483-204.18-465.483-474.871v-40.067c0-8.868 7.525-16.027 16.847-16.027h84.235c9.322 0 16.791 7.159 16.791 16.027v40.067c0 206.745 149.489 362.684 347.61 362.684s347.497-155.94 347.497-362.684v-40.067c0-8.868 7.525-16.027 16.847-16.027h84.235c9.322 0 16.847 7.159 16.847 16.027v40.067zM338.512 727.078c0 66.564 56.943 120.788 126.914 120.788s126.97-54.224 126.97-120.788c0-66.564-56.999-120.735-126.97-120.735s-126.914 54.17-126.914 120.735zM465.426 494.157c135.001 0 244.843 104.494 244.843 232.922 0 128.481-109.842 232.922-244.843 232.922s-244.787-104.441-244.787-232.922c0-128.427 109.786-232.922 244.787-232.922z" />
<glyph unicode="&#xe906;" glyph-name="calender-icon" horiz-adv-x="998" d="M771.996 831.506c0-22.030-17.844-39.874-39.874-39.874s-39.874 17.844-39.874 39.874v88.62c0 22.030 17.844 39.874 39.874 39.874s39.874-17.844 39.874-39.874v-88.62zM897.167 543.548h-817.419v-401.532c0-69.614 56.621-126.235 126.268-126.235h564.883c69.647 0 126.268 56.621 126.268 126.235v401.532zM976.915 665.364v-523.348c0-113.575-92.408-206.016-206.016-206.016h-564.883c-113.608 0-206.016 92.441-206.016 206.016v523.348c0 94.402 63.865 173.984 150.624 198.241v-32.099c0-45.888 37.183-83.071 83.071-83.071s83.071 37.183 83.071 83.071v39.907h332.284v-39.907c0-45.888 37.183-83.071 83.071-83.071s83.071 37.183 83.071 83.071v34.99c92.375-20.369 161.723-102.742 161.723-201.132zM233.695 791.632c22.030 0 39.874 17.844 39.874 39.874v88.62c0 22.030-17.844 39.874-39.874 39.874s-39.874-17.844-39.874-39.874v-88.62c0-22.030 17.844-39.874 39.874-39.874z" />
<glyph unicode="&#xe907;" glyph-name="cart-icon-thin" horiz-adv-x="1107" d="M854.447 132.469c52.008 0 94.154-43.96 94.154-98.206s-42.146-98.263-94.154-98.263c-52.008 0-94.154 44.016-94.154 98.263s42.146 98.206 94.154 98.206zM470.771 132.469c52.008 0 94.154-43.96 94.154-98.206s-42.146-98.263-94.154-98.263c-52.062 0-94.208 44.016-94.208 98.263s42.146 98.206 94.208 98.206zM1092.177 750.714c4.635 15.459 1.832 32.267-7.491 45.253-9.27 12.929-21.504 21.137-39.505 20.293l-574.518-8.151c-26.732-0.393-48.182-23.329-47.859-51.324 0.377-27.657 22.043-49.862 48.559-49.862l508.443 7.195-123.257-415.986h-401.624l-172.733 625.272c-5.982 21.699-25.007 36.596-46.619 36.596h-187.069c-26.786 0-48.505-22.654-48.505-50.593s21.72-50.593 48.505-50.593h150.582l172.733-625.272c5.982-21.643 25.007-36.596 46.619-36.596h473.896c21.288 0 40.044 14.447 46.296 35.696l153.546 518.071z" />
<glyph unicode="&#xe908;" glyph-name="check-icon" horiz-adv-x="1339" d="M1318.795 881.388l-61.632 59.77c-12.975 12.593-29.719 18.842-46.51 18.842-17.412 0-34.823-6.774-47.894-20.225l-676.569-697.015-314.886 297.037c-12.403 11.687-28.813 18.222-45.842 18.222-0.668 0-1.336 0-2.051-0.048-17.745-0.572-34.489-8.157-46.653-21.084l-58.722-62.632c-25.139-26.904-23.851-69.024 2.958-94.306l424.269-399.882c12.88-12.116 29.385-18.174 45.747-18.174 17.507 0 34.871 6.821 47.941 20.273l781.277 804.772c12.307 12.689 19.129 29.813 18.843 47.511-0.239 17.697-7.537 34.584-20.274 46.938z" />
<glyph unicode="&#xe909;" glyph-name="close-icon" d="M611.388 448l379.482 379.482c12.047 12.047 12.047 30.118 0 42.165l-57.224 57.224c-12.047 12.047-30.118 12.047-42.165 0l-379.482-379.482-379.482 379.482c-12.047 12.047-30.118 12.047-42.165 0l-57.224-57.224c-12.047-12.047-12.047-30.118 0-42.165l379.482-379.482-379.482-379.482c-12.047-12.047-12.047-30.118 0-42.165l57.224-57.224c12.047-12.047 30.118-12.047 42.165 0l379.482 379.482 379.482-379.482c12.047-12.047 30.118-12.047 42.165 0l57.224 57.224c12.047 12.047 12.047 30.118 0 42.165l-379.482 379.482z" />
<glyph unicode="&#xe90a;" glyph-name="delivery-icon" horiz-adv-x="1902" d="M1757.476 386.637l-259.462 335.676h-79.016l-118.643-500.032c32.663 43.391 84.139 71.81 142.58 71.81 72.371 0 134.334-43.070 162.594-104.874v0.080h94.546l57.4 197.339zM1501.936 115.006c0 32.583-26.419 59.001-59.001 59.001-32.503 0-58.921-26.419-58.921-59.001 0-32.503 26.419-58.921 58.921-58.921 32.583 0 59.001 26.419 59.001 58.921zM593.617 115.006c0 32.583-26.499 59.001-59.001 59.001-32.583 0-59.001-26.419-59.001-59.001 0-32.503 26.419-58.921 59.001-58.921 32.503 0 59.001 26.419 59.001 58.921zM1881.323 382.474l-78.455-269.95c-7.445-25.698-30.902-43.31-57.641-43.31h-129.851c-20.334-76.534-89.503-133.214-172.441-133.214s-152.027 56.68-172.361 133.214h-53.718l-510.519-2.242c-21.135-75.413-89.583-130.972-171.721-130.972-81.577 0-149.705 54.839-171.24 129.531v-0.16l-128.891-0.56c-17.933 0-34.985 8.006-46.353 21.855-11.448 13.85-16.091 32.183-12.569 49.875l29.781 150.186c6.405 32.503 38.667 53.478 70.53 47.233 32.503-6.485 53.718-38.107 47.233-70.61l-15.451-78.135 62.364 0.32v-0.080c27.379 63.885 90.704 108.636 164.596 108.636 73.252 0 136.096-44.111 163.795-107.115l470.651 2.081 154.429 650.858h-895.91c-33.143 0-60.042 26.899-60.042 60.042s26.899 60.042 60.042 60.042h971.883c18.413 0 35.785-8.406 47.073-22.816 11.448-14.41 15.611-33.223 11.368-51.076l-10.407-43.711h79.976c18.573 0 36.105-8.566 47.553-23.296l296.128-383.229c11.688-15.131 15.451-34.985 10.167-53.398zM709.619 427.466h-518.204c-33.143 0-60.042 26.899-60.042 60.042s26.899 60.042 60.042 60.042h518.204c33.143 0 60.042-26.899 60.042-60.042s-26.899-60.042-60.042-60.042zM743.643 626.806c33.143 0 60.042 26.899 60.042 60.042s-26.899 60.042-60.042 60.042h-683.601c-33.143 0-60.042-26.899-60.042-60.042s26.899-60.042 60.042-60.042h683.601z" />
<glyph unicode="&#xe90b;" glyph-name="edit-icon" d="M913.844 711.333l-55.409-56.061-147.715 146.15 55.474 56.061c2.999 2.999 7.105 4.759 11.473 4.759 4.563-0.13 8.54-1.63 11.538-4.628l124.573-123.269c4.172-4.107 4.693-8.865 4.628-11.473 0.065-2.542-0.391-7.431-4.563-11.538zM354.081 145.572l-147.78 146.15 453.9 458.658 147.715-146.085-453.834-458.723zM173.772 74.127l-36.114 39.504 33.050 112.448 117.989-116.816-114.925-35.136zM982.552 803.834l-124.573 123.269c-44.458 44.132-117.011 43.871-161.339-0.847l-591.706-597.964c-5.671-5.736-9.843-12.842-12.19-20.664l-90.741-308.988c-5.085-17.275-0.326-35.853 12.386-48.499 6.388-6.323 14.341-10.691 23.011-12.777 8.54-2.021 17.34-1.825 25.684 0.782l308.075 94.065c7.627 2.347 14.732 6.584 20.534 12.386l591.771 597.964c21.316 21.642 32.985 50.39 32.789 80.832-0.13 30.508-12.060 59.060-33.702 80.441z" />
<glyph unicode="&#xe90c;" glyph-name="express-icon" horiz-adv-x="1755" d="M1627.826 390.599l-257.67 333.357h-78.47l-117.744-496.576c32.437 43.011 83.478 71.314 141.516 71.314 71.871 0 133.406-42.852 161.471-104.149v0.080h93.893l57.004 195.975zM1374.132 120.845c0 32.278-26.316 58.594-58.673 58.594-32.278 0-58.514-26.316-58.514-58.594s26.236-58.594 58.514-58.594c32.358 0 58.673 26.316 58.673 58.594zM472.010 120.845c0 32.278-26.316 58.594-58.594 58.594-32.358 0-58.594-26.316-58.594-58.594s26.236-58.594 58.594-58.594c32.278 0 58.594 26.316 58.594 58.594zM1750.817 386.465l-77.913-268.084c-7.394-25.521-30.688-43.011-57.242-43.011h-128.954c-20.194-76.084-88.884-132.373-171.25-132.373s-150.976 56.288-171.17 132.373h-53.347l-507.071-2.306c-20.989-74.812-88.884-130.067-170.455-130.067-81.014 0-148.671 54.539-170.057 128.636v-0.080l-128-0.557c-17.809 0-34.743 7.95-46.032 21.704-11.369 13.754-15.98 31.96-12.482 49.53l29.575 149.148c6.36 32.278 38.4 53.108 70.042 46.907 32.278-6.44 53.347-37.843 46.907-70.122l-15.344-77.595 61.933 0.238c27.19 63.443 90.157 107.886 163.458 107.886 72.825 0 135.155-43.886 162.663-106.455l467.399 2.147 153.361 646.36h-889.719c-32.914 0-59.627 26.713-59.627 59.627s26.713 59.627 59.627 59.627h965.168c18.286 0 35.538-8.348 46.748-22.658 11.369-14.311 15.503-32.994 11.289-50.723l-10.256-43.409h79.344c18.445 0 35.856-8.507 47.225-23.135l294.082-380.581c11.607-15.026 15.344-34.743 10.097-53.029zM594.127 448.795c0-21.943-17.809-39.752-39.752-39.752h-514.624c-21.943 0-39.752 17.809-39.752 39.752s17.809 39.752 39.752 39.752h514.624c21.943 0 39.752-17.809 39.752-39.752zM914.127 587.21c0-22.022-17.729-39.752-39.752-39.752h-678.957c-21.943 0-39.752 17.729-39.752 39.752 0 21.943 17.809 39.752 39.752 39.752h678.957c22.022 0 39.752-17.809 39.752-39.752zM740.333 679.275c21.943 0 39.752 17.729 39.752 39.752 0 21.943-17.809 39.752-39.752 39.752h-661.625c-22.022 0-39.752-17.809-39.752-39.752 0-22.022 17.729-39.752 39.752-39.752h661.625z" />
<glyph unicode="&#xe90d;" glyph-name="logout-icon" horiz-adv-x="995" d="M971.725 437.846c5.049-5.049 7.834-11.769 7.834-18.898 0-7.166-2.785-13.848-7.834-18.898l-155.414-155.377c-5.012-5.049-11.732-7.834-18.861-7.834-3.527 0-6.98 0.668-10.247 2.042-9.987 4.158-16.484 13.848-16.484 24.689v102.953h-466.872c-16.41 0-29.702 13.329-29.702 29.664v59.403c0 16.373 13.291 29.702 29.702 29.702h466.872v89.031c0 10.841 6.497 20.531 16.484 24.652 3.267 1.374 6.72 2.079 10.247 2.079 7.128 0 13.848-2.785 18.861-7.834l155.414-155.377zM711.947 225.219c0 8.242-6.683 14.888-14.851 14.888h-74.254c-8.205 0-14.888-6.646-14.888-14.888v-162.988c0-12.252-9.95-22.239-22.239-22.239h-459.447c-12.326 0-22.313 9.987-22.313 22.239v771.536c0 12.289 9.987 22.276 22.313 22.276h459.447c12.289 0 22.239-9.987 22.239-22.276v-163.025c0-8.168 6.683-14.814 14.888-14.814h74.254c8.168 0 14.851 6.646 14.851 14.814v163.025c0 69.613-56.619 126.232-126.232 126.232h-459.447c-69.613 0-126.269-56.619-126.269-126.232v-771.536c0-69.576 56.656-126.232 126.269-126.232h459.447c69.613 0 126.232 56.656 126.232 126.232v162.988z" />
<glyph unicode="&#xe90e;" glyph-name="menu-icon" horiz-adv-x="1184" d="M32 107.52h1120c17.673 0 32-14.327 32-32v-78.080c0-17.673-14.327-32-32-32h-1120c-17.673 0-32 14.327-32 32v78.080c0 17.673 14.327 32 32 32zM32 533.76h1120c17.673 0 32-14.327 32-32v-78.080c0-17.673-14.327-32-32-32h-1120c-17.673 0-32 14.327-32 32v78.080c0 17.673 14.327 32 32 32zM32 960h1120c17.673 0 32-14.327 32-32v-78.080c0-17.673-14.327-32-32-32h-1120c-17.673 0-32 14.327-32 32v78.080c0 17.673 14.327 32 32 32z" />
<glyph unicode="&#xe90f;" glyph-name="newsletter-icon" horiz-adv-x="2121" d="M709.73 777.679c0 12.093-9.85 21.943-21.943 21.943h-665.795c-12.142 0-21.992-9.85-21.992-21.943v-73.143c0-12.093 9.85-21.943 21.992-21.943h665.795c12.093 0 21.943 9.85 21.943 21.943v73.143zM693.638 203.8c0 12.093-9.85 21.943-21.943 21.943h-324.657c-12.142 0-21.992-9.85-21.992-21.943v-73.143c0-12.093 9.85-21.943 21.992-21.943h324.657c12.093 0 21.943 9.85 21.943 21.943v73.143zM709.632 490.764c0 12.093-9.85 21.943-21.943 21.943h-502.882c-12.093 0-21.943-9.85-21.943-21.943v-73.143c0-12.093 9.85-21.943 21.943-21.943h502.882c12.093 0 21.943 9.85 21.943 21.943v73.143zM1468.026 401.432l514.779 396.434v-676.571c0-21.504-17.457-39.010-38.961-39.010h-975.238c-21.553 0-39.009 17.506-39.009 39.010v680.862l520.436-400.725c2.584-2.048 5.949-2.487 8.972-1.512 2.974-0.975 6.339-0.536 9.021 1.512zM1459.005 542.257l-390.534 300.666h781.068l-390.534-300.666zM1943.845 960h-975.238c-86.065 0-156.087-70.022-156.087-156.038v-682.667c0-86.065 70.022-156.087 156.087-156.087h975.238c86.016 0 156.038 70.022 156.038 156.087v682.667c0 86.016-70.022 156.038-156.038 156.038z" />
<glyph unicode="&#xe910;" glyph-name="phone-icon" d="M936.091 448.015c0 233.87-190.237 424.107-424.107 424.107-233.832 0-424.069-190.237-424.069-424.107s190.237-424.107 424.069-424.107c233.87 0 424.107 190.237 424.107 424.107zM1024.008 448.015c0-282.318-229.705-511.985-512.023-511.985-282.279 0-511.985 229.667-511.985 511.985s229.705 511.985 511.985 511.985c282.318 0 512.023-229.667 512.023-511.985zM684.12 355.912c30.804-52.989 61.477-106.109 92.019-159.273 7.045-12.339 3.676-24.679-8.314-31.855-15.577-9.364-31.373-18.378-47.257-27.26-3.457-1.969-7.614-2.625-11.464-3.894-10.589 0.744-16.802 6.476-21.703 15.008-24.679 42.969-49.576 85.893-74.342 128.818-5.295 9.145-10.677 18.246-15.796 27.479-7.395 13.258-4.332 25.422 8.62 33.080 15.14 9.014 30.323 17.809 45.725 26.429 12.689 7.132 25.247 3.982 32.511-8.532zM433.528 588.52c-30.979 53.601-62.003 107.159-92.763 160.935-6.52 11.42-3.15 23.628 8.139 30.498 15.796 9.539 31.811 18.815 48.001 27.741 11.77 6.52 24.416 3.238 31.154-8.357 31.111-53.514 62.046-107.115 92.851-160.848 6.476-11.333 3.063-23.803-8.095-30.586-16.059-9.67-32.423-18.946-48.788-28.135-3.238-1.794-7.132-2.275-8.576-2.713-11.070 0.175-17.634 4.069-21.922 11.464zM680.532 128.643c-33.167 57.408-65.941 114.204-97.751 169.38-12.339-2.363-23.147-5.907-33.999-6.213-24.46-0.569-44.85 10.852-62.659 26.297-48.963 42.531-78.324 96.57-91.932 159.491-3.938 18.159-4.419 36.668-0.35 55.089 3.938 17.853 13.258 32.205 28.923 42.4-33.211 57.583-65.984 114.379-99.152 171.787-11.289-7.22-21.747-13.652-31.986-20.522-33.255-22.316-48.263-53.864-47.388-93.638 1.094-47.738 11.814-93.595 27.26-138.401 31.636-91.494 78.324-174.894 137.482-251.336 31.154-40.299 65.678-77.667 107.246-107.553 15.796-11.377 32.992-21.747 50.976-28.923 41.612-16.584 77.624 1.269 113.329 22.141z" />
<glyph unicode="&#xe911;" glyph-name="redo-icon" horiz-adv-x="788" d="M235.811 32.909c3.23-3.23 3.23-6.461 3.23-12.921 0-3.23-3.23-6.461-3.23-9.691l-67.836-67.836c-3.23-3.23-6.461-3.23-12.921-3.23-3.23 0-6.461 0-9.691 3.23 0 0 0 0 0 0s0 0 0 0 0 0 0 0v0c-190.587 193.817-190.587 507.155 0 697.741 93.678 93.678 222.89 145.363 352.101 145.363l3.23 132.442c0 19.382 9.691 32.303 29.073 38.763 16.151 6.461 32.303 3.23 45.224-9.691l203.508-216.429c6.461-9.691 12.921-19.382 9.691-29.073 0-12.921-3.23-22.612-12.921-29.073l-216.429-203.508c-12.921-12.921-29.073-16.151-48.454-6.461-16.151 6.461-25.842 19.382-22.612 38.763l6.461 158.284c-96.909 0-190.587-38.763-258.423-106.599-142.132-145.363-142.132-377.943 0-520.076 0 0 0 0 0 0v0z" />
<glyph unicode="&#xe912;" glyph-name="resize-icon" horiz-adv-x="1028" d="M155.366 698.703l-3.531-141.241c0-10.593-3.531-24.717-14.124-35.31-7.062-7.062-17.655-14.124-35.31-14.124h-52.966c-10.593 0-28.248 3.531-35.31 14.124-7.062 7.062-14.124 24.717-14.124 35.31l10.593 342.51c0 7.062 0 10.593 3.531 17.655s10.593 14.124 14.124 17.655 7.062 10.593 14.124 14.124c7.062 0 14.124 0 17.655 0l346.041 10.593c10.593 0 28.248-3.531 35.31-14.124 7.062-7.062 14.124-24.717 14.124-35.31v-49.434c0-10.593-3.531-24.717-14.124-35.31-7.062-7.062-17.655-14.124-35.31-14.124h-155.366l621.462-621.462 3.531 151.834c0 10.593 3.531 24.717 14.124 35.31 7.062 7.062 17.655 14.124 35.31 14.124h49.434c10.593 0 28.248-3.531 35.31-14.124 7.062-7.062 14.124-24.717 14.124-35.31l-10.593-342.51c0-7.062 0-10.593-3.531-17.655-3.531-3.531-7.062-10.593-10.593-14.124s-7.062-7.062-14.124-10.593c-7.062-3.531-10.593-3.531-17.655-3.531l-346.041-17.655c-10.593 0-28.248 3.531-35.31 14.124-7.062 7.062-14.124 24.717-14.124 35.31v49.434c0 10.593 3.531 24.717 14.124 35.31 7.062 7.062 17.655 14.124 35.31 14.124l141.241 3.531-607.338 610.869z" />
<glyph unicode="&#xe913;" glyph-name="return-days-icon" d="M635.479 367.696c-14.185 0-25.43 6.781-33.681 20.288-8.194 13.506-12.263 34.925-12.263 64.254 0 29.273 4.069 50.635 12.263 64.198 8.251 13.506 19.497 20.288 33.681 20.288 14.015 0 25.035-6.781 33.286-20.288 8.251-13.563 12.376-34.924 12.376-64.198 0-29.33-4.125-50.748-12.376-64.254s-19.271-20.288-33.286-20.288zM635.479 299.882c24.809 0 47.018 6.047 66.571 18.027 19.497 11.981 34.755 29.499 45.775 52.5 11.020 23.057 16.502 50.239 16.502 81.83 0 31.477-5.482 58.773-16.502 81.773s-26.278 40.519-45.775 52.5c-19.553 11.981-41.762 17.971-66.571 17.971-25.035 0-47.357-5.99-66.91-17.971-19.497-11.981-34.811-29.499-45.775-52.5-11.020-23-16.558-50.296-16.558-81.773 0-31.59 5.538-58.773 16.558-81.83 10.963-23 26.278-40.519 45.775-52.5 19.553-11.981 41.876-18.027 66.91-18.027zM404.118 481.512c24.244-5.030 42.893-14.976 55.89-29.951 12.941-14.919 19.44-32.947 19.44-54.195 0-17.293-4.69-33.286-14.072-48.092-9.324-14.75-23.509-26.73-42.667-35.772-19.101-9.042-42.723-13.619-70.923-13.619-20.627 0-41.028 2.543-61.259 7.573s-37.694 12.094-52.5 21.305l30.121 62.389c11.415-7.855 24.357-13.846 38.767-18.027 14.298-4.182 28.426-6.273 42.441-6.273 14.185 0 25.543 2.656 33.851 7.912 8.364 5.312 12.602 12.885 12.602 22.605 0 18.988-14.976 28.482-44.814 28.482h-34.698v52.33l52.274 56.456h-115.511v63.972h211.694v-51.878l-60.638-65.215zM113.024 450.204c0-4.238-2.43-8.194-6.216-10.059l-90.419-45.21c-1.582-0.791-3.391-1.243-5.086-1.243-2.034 0-4.125 0.622-5.934 1.752-3.334 2.034-5.369 5.651-5.369 9.607v45.153c0 281.148 228.705 509.796 509.74 509.796 117.376 0 229.157-40.406 318.898-112.516l72.109 67.193c10.85 10.681 23.17 12.659 37.128 6.047 13.902-5.99 20.57-16.389 20.062-31.138l-8.307-235.656c-0.339-9.155-4.012-17.010-11.020-23.566-7.007-6.499-15.089-9.551-24.3-9.268l-235.599 8.364c-14.75 0.565-24.922 7.912-30.517 22.266-5.086 13.732-2.204 25.6 8.59 35.659l88.102 82.056c-67.532 49.787-149.418 77.535-235.147 77.535-218.758 0-396.715-177.957-396.715-396.772zM1014.506 491.006c0 3.899-2.034 7.573-5.369 9.607-3.278 2.034-7.46 2.26-11.020 0.509l-90.419-45.21c-3.786-1.921-6.216-5.821-6.216-10.116 0-218.758-177.957-396.772-396.772-396.772-85.729 0-167.615 27.747-235.147 77.535l88.102 82.112c10.794 10.059 13.676 21.927 8.646 35.603-5.595 14.354-15.823 21.757-30.517 22.322l-235.656 8.307c-9.211 0.339-17.293-2.713-24.244-9.268-7.064-6.499-10.737-14.354-11.020-23.566l-8.364-235.656c-0.509-14.693 6.216-25.091 20.118-31.082 13.902-6.668 26.222-4.634 37.072 6.047l72.11 67.193c89.741-72.166 201.522-112.572 318.898-112.572 281.091 0 509.796 228.705 509.796 509.796v45.21z" />
<glyph unicode="&#xe914;" glyph-name="return-icon" horiz-adv-x="1056" d="M540.041 960c-148.689 0-289.827-64.573-387.213-177.061-24.041-27.817-21.043-69.903 6.774-93.944 27.817-24.152 69.958-21.099 93.999 6.774 72.068 83.228 176.506 130.977 286.44 130.977 208.875 0 378.718-169.899 378.718-378.774 0-208.82-169.843-378.718-378.718-378.718-100.829 0-196.216 40.032-266.952 110.545l119.040 110.878c14.047 13.159 17.823 28.594 11.216 46.417-7.329 18.656-20.599 28.316-39.754 28.983l-306.706 10.882c-11.993 0.389-22.542-3.609-31.592-12.104-9.217-8.495-13.881-18.711-14.269-30.648l-10.993-306.706c-0.611-19.211 8.106-32.758 26.207-40.531 18.156-8.661 34.202-6.052 48.249 7.884l101.217 94.222c95.943-97.497 226.254-153.075 364.338-153.075 282.331 0 512.028 229.641 512.028 511.972s-229.696 512.028-512.028 512.028z" />
<glyph unicode="&#xe915;" glyph-name="switch" horiz-adv-x="1600" d="M499.142 58.806c-53.796 0-105.297 10.93-154.543 32.83-49.206 20.966-91.605 49.206-127.158 84.759-36.487 36.487-65.193 79.313-86.16 128.559s-31.469 100.746-31.469 154.543c0 53.796 10.503 105.297 31.469 154.504 20.966 49.245 49.673 92.111 86.16 128.559 35.553 35.553 77.952 63.832 127.158 84.798 49.245 21.861 100.746 32.83 154.543 32.83 54.691 0 106.659-10.969 155.904-32.83 49.206-20.966 91.605-49.245 127.158-84.798 36.487-36.448 65.193-79.313 86.16-128.559 20.966-49.206 31.469-100.707 31.469-154.504s-10.503-105.297-31.469-154.543c-20.966-49.245-49.673-92.072-86.16-128.559-35.553-35.553-77.952-63.793-127.158-84.759-49.245-21.9-101.213-32.83-155.904-32.83zM1600 459.497c0 67.449-13.225 132.176-39.676 194.18-26.412 62.004-62.004 115.333-106.659 159.988-44.655 43.761-97.985 79.313-159.988 106.659-61.109 26.451-125.836 39.676-194.18 39.676h-600.355c-67.45 0-132.176-13.225-194.18-39.676-61.070-27.345-113.972-62.898-158.627-106.659-44.694-44.655-80.247-97.985-106.698-159.988-26.412-62.004-39.637-126.73-39.637-194.18 0-67.488 13.225-132.215 39.637-194.18 26.451-62.004 62.004-115.333 106.698-160.027 44.655-43.76 97.557-79.313 158.627-106.659 62.004-26.451 126.73-39.637 194.18-39.637h600.355c68.344 0 133.071 13.186 194.18 39.637 62.004 27.345 115.333 62.898 159.988 106.659 44.655 44.694 80.247 98.023 106.659 160.027 26.451 61.965 39.676 126.691 39.676 194.18z" />
<glyph unicode="&#xe916;" glyph-name="undo-icon" horiz-adv-x="788" d="M552.379 866.322c-3.23 3.23-3.23 6.461-3.23 12.921 0 3.23 3.23 6.461 3.23 9.691l67.836 67.836c3.23 3.23 6.461 3.23 12.921 3.23 3.23 0 6.461 0 9.691-3.23 0 0 0 0 0 0s0 0 0 0 0 0 0 0v0c190.587-193.817 190.587-507.155 0-697.741-93.678-96.909-219.659-148.593-352.101-145.363l-3.23-132.442c0-19.382-9.691-32.303-29.073-38.763-16.151-6.461-32.303-3.23-45.224 9.691l-203.508 216.429c-6.461 6.461-9.691 16.151-9.691 29.073s3.23 22.612 12.921 29.073l216.429 203.508c12.921 12.921 29.073 16.151 48.454 6.461 16.151-6.461 25.842-19.382 22.612-38.763l-6.461-158.284c96.909 0 190.587 38.763 258.423 106.599 145.363 145.363 145.363 377.943 0 520.076 0 0 0 0 0 0v0z" />
<glyph unicode="&#xe917;" glyph-name="update-icon" d="M142.332 450.133c0-8.26-4.704-15.863-12.144-19.583l-98.462-49.231c-3.118-1.532-6.509-2.297-9.791-2.297-3.993 0-8.041 1.094-11.542 3.282-6.4 3.993-10.393 10.995-10.393 18.598v49.231c0 281.162 228.759 509.867 509.976 509.867 121.983 0 237.785-43.87 329.19-121.436l65.641 61.101c10.503 10.393 22.427 12.308 35.938 5.908 13.456-5.853 19.911-15.863 19.419-30.14l-8.096-228.103c-0.328-8.916-3.884-16.52-10.667-22.81-6.728-6.291-14.55-9.299-23.467-8.971l-228.103 8.041c-14.277 0.547-24.123 7.713-29.538 21.607-4.923 13.238-2.079 24.725 8.315 34.462l66.024 61.484c-63.781 49.34-142.332 76.636-224.656 76.636-202.721 0-367.644-164.923-367.644-367.644zM1014.865 495.097c0 7.549-3.884 14.605-10.338 18.598-3.556 2.188-7.494 3.282-11.487 3.282-3.391 0-6.674-0.766-9.791-2.297l-98.516-49.231c-7.385-3.72-12.034-11.323-12.034-19.583 0-202.721-164.978-367.699-367.699-367.699-82.325 0-160.93 27.35-224.711 76.691l66.024 61.484c10.448 9.737 13.292 21.224 8.369 34.462-5.47 13.894-15.316 21.060-29.538 21.552l-228.103 8.096c-8.916 0.328-16.793-2.68-23.521-9.026-6.783-6.236-10.338-13.894-10.612-22.81l-8.15-228.048c-0.438-14.277 6.072-24.287 19.528-30.14 13.456-6.4 25.381-4.485 35.884 5.853l65.586 61.156c91.405-77.62 207.207-121.436 329.244-121.436 281.162 0 509.867 228.704 509.867 509.867v49.231z" />
<glyph unicode="&#xe918;" glyph-name="wishlist-icon" horiz-adv-x="1078" d="M773.38 960c-94.266 0-178.495-46.233-234.197-118.852-56.113 72.619-140.401 118.852-234.843 118.852-53.12 0-103.070-14.827-146.858-40.746-93.914-55.982-157.482-163.567-157.482-287.381 0-35.317 5.4-69.233 15.085-100.931 82.703-237.062 524.097-571.844 524.097-571.844s442.744 327.193 523.628 571.844c9.685 31.698 15.085 65.614 15.085 100.931 0 123.814-63.568 231.166-157.482 287.381-43.552 25.919-93.562 40.746-147.034 40.746zM773.38 854.925c32.752 0 63.979-8.698 92.564-25.743 65.564-39.228 106.357-114.824 106.357-197.308 0-23.759-3.58-47.459-9.861-68.124-49.011-148.215-282.68-358.716-422.67-471.030-160.475 130.936-376.594 338.226-424.197 470.796-6.574 22.183-9.92 45.182-9.92 68.357 0 82.659 40.676 158.197 105.829 197.075 29.172 17.221 60.398 25.977 92.857 25.977 57.816 0 112.873-28.37 151.025-77.756l84.111-108.87 83.642 109.162c37.8 49.21 92.564 77.464 150.262 77.464z" />
<glyph unicode="&#xe919;" glyph-name="zoom-icon" d="M582.756 541.719c0 21.446-17.345 38.791-38.791 38.791h-88.222v88.222c0 21.391-17.345 38.791-38.791 38.791s-38.791-17.401-38.791-38.791v-88.222h-88.167c-21.446 0-38.791-17.345-38.791-38.791s17.345-38.791 38.791-38.791h88.167v-88.222c0-21.446 17.345-38.791 38.791-38.791s38.791 17.345 38.791 38.791v88.222h88.222c21.446 0 38.791 17.345 38.791 38.791zM417.889 231.866c-172.271 0-312.474 139.719-312.474 311.52 0 171.745 140.203 311.52 312.474 311.52s312.474-139.775 312.474-311.52c0-171.801-140.203-311.52-312.474-311.52zM1017.481 16.812l-271.029 269.704c55.815 70.855 89.326 159.853 89.326 256.871 0 230.1-187.085 416.614-417.889 416.614s-417.889-186.514-417.889-416.614c0-230.1 187.085-416.614 417.889-416.614 95.484 0 183.145 32.302 253.496 85.956l271.694-270.257c4.106-4.148 9.82-6.472 15.646-6.472 5.881 0 11.54 2.323 15.701 6.527l43.109 43.033c8.655 8.629 8.6 22.623-0.055 31.252z" />
<glyph unicode="&#xe91a;" glyph-name="zoom-out-icon" d="M582.756 541.719c0 21.446-17.345 38.791-38.791 38.791h-253.972c-21.446 0-38.791-17.345-38.791-38.791s17.345-38.791 38.791-38.791h253.972c21.446 0 38.791 17.345 38.791 38.791zM417.889 231.866c-172.271 0-312.474 139.719-312.474 311.52 0 171.745 140.203 311.52 312.474 311.52s312.474-139.775 312.474-311.52c0-171.801-140.203-311.52-312.474-311.52zM1017.481 16.812l-271.029 269.704c55.815 70.855 89.326 159.853 89.326 256.871 0 230.1-187.085 416.614-417.889 416.614s-417.889-186.514-417.889-416.614c0-230.1 187.085-416.614 417.889-416.614 95.484 0 183.145 32.302 253.496 85.956l271.694-270.257c4.106-4.148 9.82-6.472 15.646-6.472 5.881 0 11.54 2.323 15.701 6.527l43.109 43.033c8.655 8.629 8.6 22.623-0.055 31.252z" />
<glyph unicode="&#xe91b;" glyph-name="wishlist-icon-set" horiz-adv-x="1078" d="M773.389 960c-94.316 0-177.853-45.811-234.442-118.568-56.589 72.758-140.126 118.568-234.442 118.568-53.895 0-102.4-16.168-145.516-40.421-94.316-56.589-156.295-164.379-156.295-288.337 0-35.032 5.389-70.063 16.168-99.705 83.537-237.137 522.779-571.284 522.779-571.284s441.937 326.063 522.779 571.284c10.779 32.337 16.168 64.674 16.168 99.705 0 123.958-64.674 231.747-156.295 288.337-48.505 24.253-97.011 40.421-150.905 40.421z" />
</font>
</defs>
</svg>
